logo

Ferris Bueller's Day Off 1986 1080p Bluray x265 10Bit AAC 5.1 - G...

  • Category Movies
  • Type HEVC/x265
  • Language English
  • Total size 3.2 GB
  • Uploaded By GetSchwifty
  • Downloads 378
  • Last checked 6 days ago
  • Date uploaded 1 week ago
  • Seeders 11
  • Leechers 3

Ferris Bueller's Day Off

ComedyDrama

High-schooler Ferris Bueller knows everyone -- and every trick to faking an illness. So with the entire school convinced he's at death's door, Bueller grabs his girlfriend and best friend and hits the streets of Chicago for a well-deserved day off. Fed-up principal Ed Rooney is determined to catch Bueller and put a premature end to his field trip. But it's tough to outfox Ferris.

Infohash : 908621F663A20A65BF815FAC792AAA9639003EFE

Source File:

Ferris Bueller's Day Off 1986 1080p USA BluRay AVC TrueHD 5.1-HDBEE

Download Ferris Bueller's Day Off 1986 1080p Bluray x265 10Bit AAC 5.1 - GetSchwifty Torrent Download Ferris Bueller's Day Off 1986 1080p Bluray x265 10Bit AAC 5.1 - GetSchwifty Torrent Download Ferris Bueller's Day Off 1986 1080p Bluray x265 10Bit AAC 5.1 - GetSchwifty Torrent Download Ferris Bueller's Day Off 1986 1080p Bluray x265 10Bit AAC 5.1 - GetSchwifty Torrent

Media Information:


Code:

General
Unique ID                      : 223414608705967718963177911186189311589 (0xA81416A76A095E0E870BCAD71F4DDE65)
Complete name                  : G:\Seeding\Ferris Bueller's Day Off 1986 1080p Bluray x265 10Bit AAC 5.1 - GetSchwifty\Ferris Bueller's Day Off 1986 1080p Bluray x265 10Bit AAC 5.1 - GetSchwifty.mkv
Format                         : Matroska
Format version                 : Version 4 / Version 2
File size                      : 3.18 GiB
Duration                       : 1 h 43 min
Overall bit rate               : 4 420 kb/s
Movie name                     : Ferris Bueller's Day Off
Encoded date                   : UTC 2018-01-10 22:55:35
Writing application            : mkvmerge v14.0.0 ('Flow') 64bit
Writing library                : libebml v1.3.4 + libmatroska v1.4.5

Video
ID                             : 1
Format                         : HEVC
Format/Info                    : High Efficiency Video Coding
Format profile                 : Main [email protected]@Main
Codec ID                       : V_MPEGH/ISO/HEVC
Duration                       : 1 h 43 min
Bit rate                       : 4 102 kb/s
Width                          : 1 920 pixels
Height                         : 800 pixels
Display aspect ratio           : 2.40:1
Frame rate mode                : Constant
Frame rate                     : 23.976 (24000/1001) FPS
Color space                    : YUV
Chroma subsampling             : 4:2:0
Bit depth                      : 10 bits
Bits/(Pixel*Frame)             : 0.111
Stream size                    : 2.95 GiB (93%)
Writing library                : x265 2.6+22-ff02513b92c0:[Windows][GCC 6.3.0][64 bit] 10bit
Encoding settings              : cpuid=1050111 / frame-threads=3 / numa-pools=8 / wpp / no-pmode / no-pme / no-psnr / no-ssim / log-level=2 / input-csp=1 / input-res=1920x800 / interlace=0 / total-frames=148176 / level-idc=0 / high-tier=1 / uhd-bd=0 / ref=5 / no-allow-non-conformance / no-repeat-headers / annexb / no-aud / no-hrd / info / hash=0 / no-temporal-layers / open-gop / min-keyint=23 / keyint=250 / gop-lookahead=0 / bframes=8 / b-adapt=2 / b-pyramid / bframe-bias=0 / rc-lookahead=80 / lookahead-slices=5 / scenecut=40 / radl=0 / no-intra-refresh / ctu=64 / min-cu-size=8 / no-rect / no-amp / max-tu-size=32 / tu-inter-depth=1 / tu-intra-depth=1 / limit-tu=0 / rdoq-level=0 / dynamic-rd=0.00 / no-ssim-rd / signhide / no-tskip / nr-intra=0 / nr-inter=0 / no-constrained-intra / strong-intra-smoothing / max-merge=3 / limit-refs=3 / limit-modes / me=3 / subme=5 / merange=57 / temporal-mvp / weightp / weightb / no-analyze-src-pics / deblock=0:0 / sao / no-sao-non-deblock / rd=3 / no-early-skip / rskip / no-fast-intra / no-tskip-fast / no-cu-lossless / no-b-intra / no-splitrd-skip / rdpenalty=0 / psy-rd=0.30 / psy-rdoq=0.00 / no-rd-refine / no-lossless / cbqpoffs=0 / crqpoffs=0 / rc=abr / bitrate=4102 / qcomp=0.60 / qpstep=4 / stats-write=0 / stats-read=2 / cplxblur=20.0 / qblur=0.5 / ipratio=1.40 / pbratio=1.30 / aq-mode=3 / aq-strength=1.00 / cutree / zone-count=0 / no-strict-cbr / qg-size=32 / no-rc-grain / qpmax=69 / qpmin=0 / no-const-vbv / sar=0 / overscan=0 / videoformat=5 / range=0 / colorprim=2 / transfer=2 / colormatrix=2 / chromaloc=0 / display-window=0 / max-cll=0,0 / min-luma=0 / max-luma=1023 / log2-max-poc-lsb=8 / vui-timing-info / vui-hrd-info / slices=1 / no-opt-qp-pps / no-opt-ref-list-length-pps / no-multi-pass-opt-rps / scenecut-bias=0.05 / no-opt-cu-delta-qp / aq-motion / no-hdr / no-hdr-opt / no-dhdr10-opt / analysis-save=(null) / analysis-load=(null) / analysis-reuse-level=5 / scale-factor=0 / refine-intra=0 / refine-inter=0 / refine-mv=0 / no-limit-sao / ctu-info=0 / no-lowpass-dct / refine-mv-type=0 / copy-pic=1
Default                        : Yes
Forced                         : No

Audio
ID                             : 2
Format                         : AAC
Format/Info                    : Advanced Audio Codec
Format profile                 : LC
Codec ID                       : A_AAC
Duration                       : 1 h 43 min
Bit rate                       : 265 kb/s
Channel(s)                     : 6 channels
Channel positions              : Front: L C R, Side: L R, LFE
Sampling rate                  : 48.0 kHz
Frame rate                     : 46.875 FPS (1024 SPF)
Compression mode               : Lossy
Delay relative to video        : 9 ms
Stream size                    : 192 MiB (6%)
Title                          : English AAC VBR 5.1
Default                        : Yes
Forced                         : No

Text #1
ID                             : 3
Format                         : PGS
Muxing mode                    : zlib
Codec ID                       : S_HDMV/PGS
Codec ID/Info                  : Picture based subtitle format used on BDs/HD-DVDs
Duration                       : 1 h 42 min
Bit rate                       : 34.8 kb/s
Count of elements              : 2410
Stream size                    : 25.5 MiB (1%)
Language                       : English
Default                        : Yes
Forced                         : No

Text #2
ID                             : 4
Format                         : PGS
Muxing mode                    : zlib
Codec ID                       : S_HDMV/PGS
Codec ID/Info                  : Picture based subtitle format used on BDs/HD-DVDs
Duration                       : 1 h 42 min
Bit rate                       : 39.3 kb/s
Count of elements              : 2810
Stream size                    : 28.8 MiB (1%)
Language                       : English
Default                        : No
Forced                         : No

Text #3
ID                             : 5
Format                         : PGS
Muxing mode                    : zlib
Codec ID                       : S_HDMV/PGS
Codec ID/Info                  : Picture based subtitle format used on BDs/HD-DVDs
Duration                       : 1 h 42 min
Bit rate                       : 35.2 kb/s
Count of elements              : 2444
Stream size                    : 25.8 MiB (1%)
Language                       : French
Default                        : No
Forced                         : No

Text #4
ID                             : 6
Format                         : PGS
Muxing mode                    : zlib
Codec ID                       : S_HDMV/PGS
Codec ID/Info                  : Picture based subtitle format used on BDs/HD-DVDs
Duration                       : 1 h 42 min
Bit rate                       : 34.3 kb/s
Count of elements              : 2444
Stream size                    : 25.2 MiB (1%)
Language                       : Spanish
Default                        : No
Forced                         : No

Text #5
ID                             : 7
Format                         : PGS
Muxing mode                    : zlib
Codec ID                       : S_HDMV/PGS
Codec ID/Info                  : Picture based subtitle format used on BDs/HD-DVDs
Duration                       : 1 h 42 min
Bit rate                       : 33.8 kb/s
Count of elements              : 2446
Stream size                    : 24.7 MiB (1%)
Language                       : Portuguese
Default                        : No
Forced                         : No

Menu
00:00:00.000                   : en:Faking Out the Parents
00:08:15.328                   : en:Faking Out Rooney
00:17:42.770                   : en:Emancipation of Sloane
00:25:54.928                   : en:The Car -- 1961 Ferrari 250 Gt California
00:31:29.846                   : en:Downtown
00:40:29.218                   : en:Lunch with Ferris
00:47:33.976                   : en:Rooney on the Trail
00:50:55.677                   : en:Bueller Residence vs. Rooney
00:58:01.728                   : en:Parade -- Ferris Style
01:05:37.391                   : en:Jeanie Encounters Rooney
01:11:20.025                   : en:Cameron Goes Berserk
01:19:45.113                   : en:Kill the Car
01:29:25.443                   : en:The Race Home
01:36:28.199                   : en:150% Better


Files:

  • Ferris Bueller's Day Off 1986 1080p Bluray x265 10Bit AAC 5.1 - GetSchwifty.mkv (3.2 GB)

Comments

Code:

  • udp://tracker.coppersurfer.tk:6969/announce
  • udp://tracker.opentrackr.org:1337/announce
  • udp://tracker.torrent.eu.org:451/announce
  • http://tracker.tfile.me:80/announce
  • http://t.nyaatracker.com:80/announce
  • http://retracker.mgts.by:80/announce
  • http://tracker.yoshi210.com:6969/announce